<?xml version="1.0" standalone="no"?>
<!DOCTYPE svg PUBLIC "-//W3C//DTD SVG 1.1//EN" "http://www.w3.org/Graphics/SVG/1.1/DTD/svg11.dtd">
<svg xmlns="http://www.w3.org/2000/svg">
<metadata>Generated by Fontastic.me</metadata>
<defs>
<font id="bridgetech" horiz-adv-x="512">
<font-face font-family="bridgetech" units-per-em="512" ascent="480" descent="-32"/>
<missing-glyph horiz-adv-x="512" />

<glyph glyph-name="twitter" unicode="&#99;" d="M161 38c193 0 299 168 299 313 0 5 0 9 0 14 20 16 38 35 52 57-19-9-39-15-60-17 21 13 38 35 46 61-20-13-43-22-67-27-19 21-46 35-77 35-58 0-105-50-105-110 0-9 1-17 3-25-87 4-165 48-216 114-9-16-15-35-15-55 0-38 19-72 47-91-17 0-33 5-47 14 0-1 0-1 0-2 0-53 36-97 84-108-9-2-18-3-28-3-7 0-13 0-20 2 14-44 53-76 99-77-36-29-82-47-131-47-8 0-17 1-25 2 46-31 102-50 161-50"/>
<glyph glyph-name="people" unicode="&#97;" d="M482 154c-39 9-39 24-39 33l0 13c0 1 0 2 1 2l0 0c13 12 27 33 27 59l0 39c0 38-36 56-60 56-24 0-60-18-60-56l0-39c0-26 14-47 27-59l0 0c1-1 1-1 1-2l0-13c0-8 0-21-25-29 0 0 0 0 0 0-4 2-8 4-12 5-49 10-49 30-49 41l0 16c0 2 0 3 1 4l1 0c15 14 32 40 32 70l0 48c0 45-43 65-71 65-29 0-71-20-71-65l0-48c0-31 17-56 32-70l1 0c1-1 1-2 1-4l0-16c0-15-4-32-47-41l-2 0 0 0c-4-1-8-3-11-5-26 8-26 21-26 29l0 13c0 1 0 2 1 2l0 0c13 12 27 33 27 59l0 39c0 38-36 56-60 56-24 0-60-18-60-56l0-39c0-26 14-47 27-59l0 0c1-1 1-1 1-2l0-13c0-9 0-24-38-33l-1 0 0 0c-1 0-1 0-1 0l0 271c0 4 3 7 6 7l446 0c4 0 7-3 7-7l0-273c-2 1-4 2-6 2m-459-2c0 0 1 0 1 0 0 0-1 0-1 0m-3-2c1 0 1 1 1 1 0 0 0-1-1-1m-4-3c1 1 2 2 3 2-1 0-2-1-3-2m-2-2c0 1 1 1 1 1 0 0-1 0-1-1m-1-1c-1-1-2-1-2-2 0 1 1 2 2 2m485 1c0 0 0 0 0 0 0 0 0 0 0 0m10-13c-1 1-1 1-2 2 0 0 0 0 0 0 0 2 1 3 1 4l0 287c0 14-12 25-26 25l-446 0c-14 0-25-11-25-25l0-284c-1-2-3-4-4-6-4-7-6-15-6-24l0-33c0-5 4-9 9-9 5 0 10 4 10 9l0 33c0 5 1 11 3 15 3 6 7 9 13 10l1 1 0 0c35 7 51 23 51 50l0 13c0 6-2 12-7 16l0 0c-10 9-21 25-21 45l0 39c0 26 25 38 42 38 17 0 41-12 41-38l0-39c0-20-10-36-20-45l-1 0c-4-4-7-10-7-16l0-13c0-20 10-34 30-43l0 0c0-2-1-3-2-4-4-8-7-18-7-28l0-40c0-5 5-9 10-9 5 0 9 4 9 9l0 40c0 7 2 14 4 19 5 8 10 12 17 14l2 0 0 0c42 9 61 28 61 59l0 16c0 7-3 13-8 18l-1 0c-12 11-26 32-26 56l0 48c0 18 10 29 18 35 10 7 23 12 35 12 21 0 52-15 52-47l0-48c0-24-13-45-26-56l0 0c-5-5-8-11-8-18l0-16c0-32 20-50 64-59 7-2 12-7 16-16 2-5 4-10 4-16l0-41c0-5 4-9 9-9 5 0 9 4 9 9l0 41c0 8-2 16-5 23-1 3-2 5-3 7 20 9 29 23 29 44l0 13c0 6-2 12-7 16l0 0c-10 9-21 25-21 45l0 39c0 26 25 38 42 38 17 0 41-12 41-38l0-39c0-20-10-36-20-45l-1 0c-4-4-7-10-7-16l0-13c0-27 17-43 54-51 2 0 8-1 13-12 1-4 2-8 2-13l0-33c0-5 4-9 9-9 5 0 10 4 10 9l0 33c0 8-2 14-4 21"/>
<glyph glyph-name="visualize" unicode="&#98;" d="M502 361l-85 0 0 54c0 5-3 8-8 8l-401 0c-5 0-8-3-8-8l0-269c0-4 3-8 8-8l231 0 0-39c0-5 3-8 8-8l255 0c4 0 8 3 8 8l0 254c0 5-4 8-8 8z m-263-206l-167 0c2 11 8 24 23 28 39 8 45 25 45 40l0 19-5 3c-11 10-23 29-23 51l0 39c0 31 30 46 50 46 20 0 50-15 50-46l0-39c0-22-13-41-24-51l-4-3 0-19c0-15 5-32 46-40 3-1 6-3 9-5z m0 198l0-157c-2 1-4 2-6 2-33 7-33 18-33 25l0 12c14 12 28 35 28 61l0 39c0 38-35 62-66 62-32 0-66-24-66-62l0-39c0-27 14-49 28-62l0-11c0-8 0-18-32-25l-2 0c-17-5-29-18-34-39l-1-5-39 0 0 253 385 0 0-46-154 0c-4 0-8-3-8-8z m255-246l-239 0 0 238 239 0z m-215 22l73 0c4 0 7 4 7 8l0 1c0 4-3 8-7 8l-73 0c-5 0-8-4-8-9 0-4 3-8 8-8z m111 8c0-4 3-8 8-8l73 0c4 0 8 4 8 8l0 1c0 4-4 8-8 8l-73 0c-4-1-8-4-8-9z m-75 22l28 31c3 3 2 8-1 11-3 3-8 2-11-1l-8-9 0 21 104 0 0-20-8 8c-3 3-8 4-11 1-3-3-4-8-1-11l28-31 27 31c3 3 2 8-1 11-3 3-8 2-11-1l-8-8 0 27c0 1 0 1 0 2 0 4-4 7-8 7l-53 0 0 30c0 5-3 8-8 8-4 0-8-3-8-8l0-30-50 0c-4 0-7-3-7-6-1-1-1-2-1-3l0-26-7 7c-3 3-8 4-11 1-3-3-4-8-1-11z m9 119l101 0c5 0 8 3 8 8l0 32c0 4-3 8-8 8l-101 0c-4 0-8-4-8-8l0-33c0-4 4-7 8-7z m8 32l85 0 0-17-85 0z"/>
<glyph glyph-name="shield" unicode="&#100;" d="M443 417l0 0z m-372 0c-1-48 4-283 180-386 4-2 8-2 12 0 176 103 181 338 180 386-68 2-127 25-178 70-5 5-12 5-16 0-51-45-111-68-178-70z m186-405c-5 0-10 1-15 4-185 108-189 354-188 402 0 9 7 16 16 16 63 2 120 24 168 67 11 9 27 9 38 0 48-43 104-65 168-67l0 0c9 0 16-7 16-16 1-48-3-294-189-402-4-3-9-4-14-4z m-117 347c-1-159 85-224 111-240 3-2 8-2 12 0 26 16 112 81 110 240-41 2-77 16-109 42-4 4-10 4-15 0-31-26-68-40-109-42m117-259c-5 0-11 1-15 4-48 30-83 77-102 141-16 50-17 97-17 115 0 9 7 16 16 16 37 2 71 15 99 39 11 9 27 9 37 0 29-24 62-37 100-39 8 0 15-7 16-16 0-18-2-65-17-115-19-64-54-111-102-141-5-3-10-4-15-4"/>
<glyph glyph-name="monitor" unicode="&#101;" d="M115 197c5 0 9 5 9 10l0 34c0 5-4 9-9 9-5 0-9-4-9-9l0-34c0-5 4-10 9-10m-10-22c0 0 1-1 1-2 1 0 1-1 1-1 2-2 5-3 8-3 3 0 5 1 7 3 2 2 4 4 4 7 0 3-2 6-4 8 0 0-1 1-1 1-1 0-1 1-2 1-1 0-1 1-2 1-3 0-7-1-10-3 0-1 0-1-1-2 0 0-1-1-1-2 0 0 0-1 0-2-1 0-1-1-1-2 0 0 0-1 1-2 0 0 0-1 0-2m349-71l-384 0 0 27 0 0c12-7 27-11 43-11 47 0 86 38 86 85 0 8-1 16-3 23l29 53 54-76c1-2 4-4 7-4 3 1 6 3 7 5l32 64 29-29c1-2 3-2 6-2l24 0c5 0 9 3 9 8 0 5-4 9-9 9l-21 0-34 34c-2 2-5 3-8 3-2-1-5-3-6-5l-31-61-53 75c-2 2-5 3-8 3-3 0-5-2-7-4l-29-53c0 0 0 0 0 0-15 26-42 43-74 43-16 0-31-4-43-11l0 0 0 102 298 0c0 0 0 0 0 0 1-29 11-90 63-120 2-1 5-2 8-2 3 0 5 1 8 2 2 2 5 3 7 5 0 0 0 0 0 0z m-394 34c0 0 0 0 0 0 0 0 0 0 0 0z m53 135c37 0 68-30 68-68 0-37-31-67-68-67-37 0-68 30-68 67 0 38 31 68 68 68z m-53 0c0 0 0 0 0 0 0 0 0 0 0 0z m379 137c15-13 33-21 53-22 0-22-6-81-53-109-47 28-53 87-53 109 19 1 37 9 53 22z m71-16c0 6-5 11-11 12-19 0-36 6-50 19-6 5-15 5-20 0-15-13-31-19-50-19-4-1-8-3-10-6l-308 0c-5 0-9-4-9-9l0-126c-15-15-25-36-25-60 0-20 7-39 19-53l-43-44c-4-4-4-9 0-13 1-2 4-3 6-3 2 0 5 1 7 3l36 36 0-36c0-5 4-9 9-9l402 0c5 0 9 4 9 9l0 187c38 40 39 99 38 112z"/>
<glyph glyph-name="linked-in" unicode="&#102;" d="M54 499c30 0 54-27 54-59 0-32-24-58-54-58-30 0-54 26-54 58 0 32 24 59 54 59z m-47-486l93 0 0 324-93 0z m182 342l99 0 0-46 1 0c14 26 48 55 99 55 105 0 124-71 124-163l0-188-104 0 0 167c0 39 0 90-54 90-54 0-62-43-62-87l0-170-103 0z"/>
<glyph glyph-name="analyze" unicode="&#103;" d="M494 100l-55 0 0 196c0 5-4 8-9 8l-50 0c-4 0-8-3-8-8l0-196-24 0 0 155c0 4-4 8-9 8l-50 0c-4 0-8-4-8-8l0-155-25 0 0 104c0 4-3 8-8 8l-50 0c-5 0-9-4-9-8l0-104-60 0 0 146c37 13 63 48 63 90 0 9-2 19-4 27l0 0 306 0z m-105 0l33 0 0 187-33 0z m-91 0l32 0 0 146-32 0z m-91 0l32 0 0 95-32 0z m-190 236c0 43 36 78 79 78 43 0 78-35 78-78 0-44-35-79-78-79-43 0-79 35-79 79z m486 45l-323 0c0 0 0 0 0 0-16 30-47 50-84 50-53 0-96-42-96-95 0-53 43-96 96-96 5 0 11 0 16 1l0-150c0-5 4-9 9-9l382 0c5 0 8 4 8 9l0 281c0 5-3 9-8 9z m-365-37l-32 0c-1 1-2 2-4 3l0 47c0 5-3 8-8 8-5 0-9-3-9-8l0-47c-3-2-6-7-6-11 0-8 7-15 15-15 5 0 9 2 12 6l32 0c5 0 9 4 9 9 0 4-4 8-9 8"/>
<glyph glyph-name="arrows" unicode="&#104;" d="M18 299l68-67c3-3 7-5 12-5l47 0-54 53 204 0c4 0 6 2 6 6l0 25c0 4-2 6-6 6l-204 0 55 54-47 0c-5 0-9-1-12-5z m130-85l-50 0c-8 0-16 3-22 9l-76 76 78 76c5 6 13 9 21 9l50 0c5 0 9-3 11-7 1-4 0-9-3-13l-35-34 173 0c11 0 19-8 19-19l0-25c0-11-8-19-19-19l-173 0 34-33c3-3 4-8 2-13-1-4-6-7-10-7z m217-72l47 0c5 0 9 2 12 5l69 68-67 66c-4 4-8 5-13 5l-46 0 53-52-204 0c-4 0-6-3-6-6l0-26c0-3 2-6 6-6l204 0z m47-13l-50 0c-5 0-9 3-11 7-1 5 0 10 3 13l35 34-173 0c-11 0-19 9-19 19l0 26c0 10 8 18 19 18l173 0-34 33c-3 4-4 9-2 13 2 4 6 7 10 7l50 0c8 0 16-3 22-9l76-75-78-77c-5-6-13-9-21-9z"/>
<glyph glyph-name="bar-graph" unicode="&#105;" d="M48 376c-2 0-3-2-3-3l0-353c0-1 1-3 3-3l32 0c2 0 3 2 3 3l0 353c0 1-1 3-3 3z m32-374l-32 0c-10 0-19 8-19 18l0 353c0 10 9 18 19 18l32 0c10 0 19-8 19-18l0-353c0-10-9-18-19-18z m63 374c-1 0-3-2-3-3l0-353c0-1 2-3 3-3l32 0c2 0 3 2 3 3l0 353c0 1-1 3-3 3z m32-374l-32 0c-10 0-18 8-18 18l0 353c0 10 8 18 18 18l32 0c11 0 19-8 19-18l0-353c0-10-8-18-19-18z m64 374c-2 0-3-2-3-3l0-353c0-1 1-3 3-3l32 0c1 0 3 2 3 3l0 353c0 1-2 3-3 3z m32-374l-32 0c-11 0-19 8-19 18l0 353c0 10 8 18 19 18l32 0c10 0 18-8 18-18l0-353c0-10-8-18-18-18z m63 495c-2 0-3-2-3-3l0-474c0-1 1-3 3-3l32 0c2 0 3 2 3 3l0 474c0 1-1 3-3 3z m32-495l-32 0c-10 0-19 8-19 18l0 474c0 10 9 18 19 18l32 0c10 0 19-8 19-18l0-474c0-10-9-18-19-18z m64 374c-2 0-4-2-4-3l0-353c0-1 2-3 4-3l31 0c2 0 4 2 4 3l0 353c0 1-2 3-4 3z m31-374l-31 0c-11 0-19 8-19 18l0 353c0 10 8 18 19 18l31 0c11 0 19-8 19-18l0-353c0-10-8-18-19-18z"/>
<glyph glyph-name="circle" unicode="&#106;" d="M255 466c-116 0-209-93-209-209 0-115 93-208 209-208 115 0 208 93 208 208 0 116-93 209-208 209m0-463c-141 0-255 114-255 254 0 141 114 255 255 255 140 0 254-114 254-255 0-140-114-254-254-254"/>
<glyph glyph-name="clock" unicode="&#107;" d="M256 507c-142 0-256-112-256-251 0-138 114-250 256-250 141 0 255 112 255 250 0 139-114 251-255 251m0-23c128 0 233-102 233-228 0-126-105-228-233-228-129 0-233 102-233 228 0 126 104 228 233 228m26-228c0-14-12-26-26-26-15 0-27 12-27 26 0 15 12 26 27 26 14 0 26-11 26-26m-26-13c-7 0-12 5-12 11l0 154c0 6 5 11 12 11 6 0 11-5 11-11l0-154c0-6-5-11-11-11m112 2l-123 0c-6 0-11 5-11 11 0 6 5 11 11 11l123 0c7 0 12-5 12-11 0-6-5-11-12-11"/>
<glyph glyph-name="clouds" unicode="&#108;" d="M494 181l-387 0c-4 0-7 3-7 7 0 40 33 73 73 73 7 0 14-1 20-3 5-1 10 0 14 3 21 19 49 30 78 30l0 0c5 0 9 2 13 6 14 19 35 29 57 29 41 0 73-33 73-73 0-3 1-5 3-7 2-1 4-2 7-2 2 1 4 1 6 1 31 0 57-26 57-57 0-4-3-7-7-7z m-480 48c-2 0-4 1-4 3 0 29 24 52 52 52 5 0 10 0 15-2 4-1 8 0 11 3 16 14 35 21 56 21l0 0c4 0 8 2 11 5 10 13 25 21 41 21 23 0 43-16 49-37 0 0 0 0 0 0-16-5-32-14-45-26-1-1-2-1-4-1-7 2-15 3-23 3-31 0-58-17-73-42z m430 26c-2 0-4 0-5 0-2 45-38 81-84 81-26 0-50-12-66-32-1-2-3-3-5-3l0 0c-9 0-19-1-29-3-7 26-31 44-59 44-20 0-38-9-49-24-1-1-2-1-3-1l0 0c-23 0-45-9-63-24 0-1-1-1-1-1-6 2-12 3-18 3-34 0-62-28-62-63 0-7 6-14 14-14l81 0c-3-9-5-19-5-30 0-9 7-17 17-17l387 0c9 0 17 8 17 17 0 37-30 67-67 67z"/>
<glyph glyph-name="cogs" unicode="&#109;" d="M418 253z m-139-50l51 0 5 23c0 5 4 10 9 11 14 5 26 12 37 22 5 3 10 4 15 2l22-8 26 44-18 14c-4 4-6 9-5 15 1 8 2 15 2 22 0 7-1 15-1 21-1 6 0 12 5 15l18 15-26 44-21-8c-5-2-11-1-16 3-11 10-24 18-38 23-5 2-9 6-10 11l-4 21-51 0-3-21c-1-5-5-9-10-11-14-5-27-13-39-22-4-4-10-5-15-3l-22 8-25-45 18-14c4-4 6-9 5-14-1-7-2-14-2-21 0-8 1-15 3-22 0-5-1-11-6-15l-17-14 25-45 22 9c5 2 11 1 15-3 11-9 24-16 37-21 6-2 9-6 10-11z m53-18l-55 0c-7 0-14 6-16 14l-4 23c-15 5-28 13-40 23l-22-9c-8-2-16 0-20 7l-26 47c-4 7-2 15 4 21l18 14c-2 8-3 16-3 24 0 8 1 15 2 23l-18 15c-6 5-8 13-4 20l28 47c4 7 13 9 19 7l21-8c13 10 26 19 42 24l3 21c2 8 9 14 16 14l55 0c8 0 14-6 16-14l4-21c15-5 29-14 41-24l21 8c8 2 15 0 19-7l28-47c4-7 2-15-4-20l-17-15c2-8 2-15 2-23 0-8-1-16-3-24l18-14c6-6 8-14 4-21l-28-47c-4-7-11-9-19-7l-22 9c-12-10-26-18-40-23l-5-23c-1-9-7-14-15-14z m-27 219c-30 0-55-25-55-55 0-30 25-55 55-55 30 0 54 25 54 55 0 30-24 55-54 55m0-127c-40 0-73 33-73 73 0 40 33 72 73 72 40 0 72-32 72-72 0-40-32-73-72-73m-119-63z m-91-29z m169-104z m-174-26z m7-14z m83-21z m3 16c5 0 8-2 11-5l8-11 29 15-4 13c-2 4 0 9 3 13 7 7 12 17 17 26 1 4 6 8 10 9l14 1 0 33-13 2c-5 1-9 5-11 10-3 10-8 19-14 27-3 3-4 8-2 14l5 12-27 18-9-11c-4-3-8-5-13-4-5 1-10 2-15 2-5 0-11 0-16-1-5-1-9 1-13 5l-9 12-29-15 5-15c2-4 0-9-2-13-7-7-12-16-17-25-1-5-6-8-10-9l-15-2-1-32 14-3c5-1 9-5 11-10 3-9 7-19 14-26 3-4 4-9 2-13l-6-14 27-17 10 11c3 4 8 5 12 5 5-1 11-2 17-2 5 0 10 0 15 1 2-1 2-1 2-1z m18-36c-4 0-8 2-11 5l-8 12c-5-1-10-1-16-1-5 0-11 1-16 2l-10-11c-4-5-12-6-18-3l-34 22c-6 3-9 11-6 17l6 14c-6 9-11 18-15 27l-15 4c-7 1-11 7-11 14l2 40c0 6 5 12 12 13l15 2c4 9 9 19 16 26l-5 15c-3 7 1 14 7 17l35 19c6 3 14 2 18-4l9-12c5 1 11 1 16 1 5 0 11-1 16-1l10 11c4 5 12 6 18 2l33-20c6-4 9-11 6-17l-5-15c7-8 12-19 15-29l15-2c7-2 11-8 11-15l-2-39c0-7-5-13-12-14l-14-1c-4-11-10-20-17-28l4-13c3-7-1-14-7-18l-35-18c-1-1-4-2-7-2z m-33 81c10 0 20 3 27 10 6 7 11 16 12 26 0 20-16 37-36 37-21 1-38-15-39-35-1-21 16-38 36-38m1-19c-1 0-2 0-2 0-30 1-54 27-53 57 1 29 27 53 58 53 29-1 53-27 52-57 0-29-25-53-55-53"/>
<glyph glyph-name="cubes" unicode="&#110;" d="M111 385l-110 0 0 104 110 0z m-100 9l91 0 0 86-91 0z m81 10l-71 0 0 66 71 0z m-62 9l53 0 0 48-53 0z m81-269l-110 0 0 104 110 0z m-100 9l91 0 0 86-91 0z m81 10l-71 0 0 66 71 0z m-62 9l53 0 0 47-53 0z m81 92l-110 0 0 104 110 0z m-100 9l91 0 0 86-91 0z m81 10l-71 0 0 66 71 0z m-62 10l53 0 0 47-53 0z m81-270l-110 0 0 104 110 0z m-100 9l91 0 0 86-91 0z m81 10l-71 0 0 66 71 0z m-62 9l53 0 0 48-53 0z m215 334l-110 0 0 104 110 0z m-102 9l92 0 0 86-92 0z m82 10l-71 0 0 66 71 0z m-62 9l53 0 0 48-53 0z m82-269l-110 0 0 104 110 0z m-102 9l92 0 0 86-92 0z m82 10l-71 0 0 66 71 0z m-62 9l53 0 0 47-53 0z m82-149l-110 0 0 104 110 0z m-102 9l92 0 0 86-92 0z m82 10l-71 0 0 66 71 0z m-62 9l53 0 0 48-53 0z m214 93l-110 0 0 104 110 0z m-100 9l91 0 0 86-91 0z m81 10l-71 0 0 66 71 0z m-62 9l53 0 0 47-53 0z m81-149l-110 0 0 104 110 0z m-100 9l91 0 0 86-91 0z m81 10l-71 0 0 66 71 0z m-62 9l53 0 0 48-53 0z m215-28l-110 0 0 104 110 0z m-102 9l92 0 0 86-92 0z m82 10l-71 0 0 66 71 0z m-62 9l53 0 0 48-53 0z"/>
<glyph glyph-name="down-arrow" unicode="&#111;" d="M265 493l0-436c0-11-8-19-18-19-11 0-19 8-19 19l0 436c0 11 8 19 19 19 10 0 18-8 18-19z m110-363l-107-107c-8-7-20-7-27 0-7 8-7 20 0 27l107 107c8 8 20 8 27 0 7-7 7-19 0-27z m-114-80l-107 107c-7 8-19 8-27 0-7-7-7-19 0-27l107-107c8-7 20-7 27 0 8 8 8 20 0 27z"/>
<glyph glyph-name="facebook" unicode="&#113;" d="M294 0l0 234 76 0 11 91-87 0 0 58c0 26 7 44 44 44l46 0 0 81c-8 2-36 4-68 4-67 0-112-42-112-120l0-67-76 0 0-91 76 0 0-234z"/>
<glyph glyph-name="google-plus" unicode="&#114;" d="M261 207l0 96 244 0c3-16 6-32 6-53 0-146-100-250-250-250-144 0-261 115-261 256 0 141 117 256 261 256 70 0 129-25 174-67l-74-70c-19 17-51 37-100 37-86 0-157-70-157-156 0-86 71-157 157-157 100 0 137 68 143 108l-143 0z"/>
<glyph glyph-name="kebab" unicode="&#115;" d="M313 455c0-31-26-57-57-57-31 0-57 26-57 57 0 32 26 57 57 57 31 0 57-25 57-57z m0-199c0-31-26-57-57-57-31 0-57 26-57 57 0 31 26 57 57 57 31 0 57-26 57-57z m0-199c0-32-26-57-57-57-31 0-57 25-57 57 0 31 26 57 57 57 31 0 57-26 57-57z"/>
<glyph glyph-name="close" unicode="&#116;" d="M522 467l-48 45-215-214-214 214-45-45 214-214-214-215 45-48 214 218 215-218 48 48-218 215z"/>
<glyph glyph-name="single-dot" unicode="&#117;" d="M512 256c0-141-115-256-256-256-141 0-256 115-256 256 0 141 115 256 256 256 141 0 256-115 256-256z"/>
<glyph glyph-name="arrow-down" unicode="&#118;" d="M254 208l-194 194-49-49 243-243 247 243-49 49z"/>
<glyph glyph-name="arrow-left" unicode="&#119;" d="M218 266l188 188-48 48-235-236 235-239 48 48z"/>
<glyph glyph-name="arrow-right" unicode="&#120;" d="M311 266l-188 188 48 48 235-236-235-239-48 48z"/>
<glyph glyph-name="arrow-up" unicode="&#121;" d="M254 304l-194-194-49 49 243 243 247-243-49-49z"/>
<glyph glyph-name="magnifying-glass" unicode="&#122;" d="M506 34l-159 159c28 35 43 77 43 123 0 108-88 193-194 193-105 0-196-85-196-190 0-109 88-194 193-194 46 0 89 17 123 43l159-159c3-3 9-6 14-6 6 0 12 3 14 6 12 5 12 17 3 25z m-313 131c-85 0-153 68-153 154 0 85 68 153 153 153 86 0 154-68 154-153 0-86-68-154-154-154z"/>
<glyph glyph-name="product" unicode="&#67;" d="M486 233l-40 0 0 253c0 5-4 10-9 10-6 0-10-5-10-10l0-253-342 0 0 253c0 5-4 10-10 10-5 0-9-5-9-10l0-253-40 0c-14 0-26-12-26-26l0-132c0-14 12-26 26-26l40 0 0-23c0-5 4-10 9-10 6 0 10 5 10 10l0 23 342 0 0-23c0-5 4-10 10-10 5 0 9 5 9 10l0 23 40 0c15 0 26 12 26 26l0 132c0 14-11 26-26 26z m7-158c0-4-3-7-7-7l-460 0c-4 0-7 3-7 7l0 132c0 3 3 7 7 7l460 0c4 0 7-4 7-7l0-132z m-270 75l-148 0c-5 0-9-4-9-9 0-6 4-10 9-10l148 0c6 0 10 4 10 10 0 5-5 9-10 9z m207-1c0-10-8-18-18-18-10 0-18 8-18 18 0 10 8 18 18 18 10 0 18-8 18-18z"/>
<glyph glyph-name="screen-1" unicode="&#68;" d="M502 463l-492 0c-6 0-10-4-10-10l0-394c0-6 4-10 10-10l492 0c6 0 10 4 10 10l0 394c0 6-4 10-10 10z m-9-19l0-80-474 0 0 80z m-474-376l0 277 474 0 0-277z m31 332c1-1 1-2 2-3 2-2 4-3 7-3 1 0 1 0 2 1 1 0 1 0 2 0 0 1 1 1 1 1 1 1 1 1 2 2 0 0 1 0 1 1 1 1 1 1 1 2 1 0 1 1 1 2 0 1 0 2 0 3 0 1 0 2-1 2 0 1 0 2-1 2 0 1 0 1-1 2-1 0-2 1-3 1-1 1-1 1-2 1-3 1-6 0-9-2-1-1-1-2-2-4 0 0 0-1 0-2 0 0-1-1-1-1 0-1 0-2 1-2 0-2 0-2 0-3z m58-6c6 0 10 4 10 10 0 2-1 5-3 7-4 3-10 3-13 0-1-1-1-1-2-2 0-1 0-1-1-2 0 0 0-1 0-2 0 0-1-1-1-1 1-5 5-10 10-10z m44 2c1 0 1-1 2-1 0 0 1 0 2-1 1 0 2 0 3 0 1 0 2 1 2 1 1 0 2 1 2 1 1 0 1 1 2 1 0 1 1 1 1 2 0 0 0 1 1 1 0 1 0 2 0 2 0 1 1 2 1 2 0 1 0 1-1 2 0 1 0 1 0 2-1 1-1 1-1 2 0 0-1 1-1 1-4 4-10 4-14 0-4-4-4-10 0-13 0-1 1-2 1-2z m295-161l-29 0-48 47c-3 4-10 4-13 0-1 0-1-1-2-2l-43-86-74 104c-2 3-5 4-9 4-3-1-6-2-7-5l-74-133-26 65c-2 4-5 6-9 6l-33 0c-6 0-10-4-10-9 0-6 4-10 10-10l27 0 31-77c1-4 4-6 8-6l0 0c4 0 7 2 9 4l76 137 75-104c3-4 9-5 13-2 1 1 2 2 3 3l44 89 41-41c2-2 4-3 7-3l33 0c5 0 10 4 10 10 0 5-5 9-10 9z"/>
<glyph glyph-name="screen-2" unicode="&#69;" d="M486 479l-459 0c-15 0-26-12-26-26l0-296c0-14 11-26 26-26l220 0 0-79-73 0c-5 0-10-4-10-9 0-6 5-10 10-10l164 0c5 0 10 4 10 10 0 5-5 9-10 9l-72 0 0 79 220 0c14 0 26 12 26 26l0 296c-1 14-12 26-26 26z m6-321c0-4-3-7-7-7l-458 0c-4 0-7 3-7 7l0 295c0 3 3 7 7 7l459 0c4 0 7-4 7-7l0-295z"/>
<glyph glyph-name="servers" unicode="&#70;" d="M508 402l-42 88c-6 14-17 22-29 22l-362 0c-12 0-22-8-29-22l-42-88c-2-5-4-10-4-15l0-361c0-15 12-26 26-26l460 0c15 0 26 11 26 26l0 361c0 6-1 11-4 15z m-16-11c1-1 1-2 1-3l0-106-474 0 0 105c0 4 3 7 7 7l460 0c2 0 4-1 6-3z m-473-128l474 0 0-112-474 0z m44 219c1 3 6 11 12 11l362 0c5 0 9-6 11-11l33-69-450 0z m423-463l-460 0c-4 0-7 3-7 7l0 106 474 0 0-106c0-4-3-7-7-7z m-49 66l-165 0c-5 0-9-4-9-10 0-5 4-9 9-9l165 0c5 0 9 4 9 9 0 6-4 10-9 10z m0 131l-165 0c-5 0-9-4-9-9 0-6 4-10 9-10l165 0c5 0 9 4 9 10 0 5-4 9-9 9z m-165 112l165 0c5 0 9 5 9 10 0 5-4 9-9 9l-165 0c-5 0-9-4-9-9 0-5 4-10 9-10z m-189-8c10 0 18 8 18 18 0 10-8 18-18 18-9 0-17-8-17-18 0-10 8-18 17-18z m0 20c1 0 2-1 2-2 0 0-1-1-2-1 0 0-1 1-1 1 0 1 1 2 1 2z m0-116c-9 0-17-8-17-17 0-10 8-18 17-18 10 0 18 8 18 17 0 10-8 18-18 18z m0-19c0 0-1 1-1 2 0 0 1 1 1 1 1 0 2-1 2-1 0-1-1-2-2-2z m0-112c-9 0-17-8-17-18 0-10 8-18 17-18 10 0 18 8 18 18 0 10-8 18-18 18z m0-19c0 0-1 0-1 1 0 1 1 1 1 1 1 0 2 0 2-1 0-1-1-1-2-1z"/>
<glyph glyph-name="graph-1" unicode="&#71;" d="M137 344l-117 0c-11 0-20 9-20 20l0 23c0 11 9 20 20 20l117 0c11 0 20-9 20-20l0-24c0-10-9-19-20-19z m-117 50c-4 0-7-3-7-7l0-24c0-4 3-7 7-7l117 0c4 0 7 3 7 7l0 24c0 4-3 7-7 7z m293-50l-117 0c-11 0-19 9-19 20l0 23c0 11 8 20 19 20l117 0c11 0 20-9 20-20l0-24c0-10-9-19-20-19z m-117 50c-4 0-7-3-7-7l0-24c0-4 3-7 7-7l117 0c4 0 7 3 7 7l0 24c0 4-3 7-7 7z m296-50l-117 0c-11 0-20 9-20 20l0 23c0 11 9 20 20 20l117 0c11 0 20-9 20-20l0-24c0-10-9-19-20-19z m-117 50c-4 0-7-3-7-7l0-24c0-4 3-7 7-7l117 0c4 0 7 3 7 7l0 24c0 4-3 7-7 7z m-62-131l-117 0c-11 0-19 9-19 20l0 23c0 11 8 20 19 20l117 0c11 0 20-9 20-20l0-23c0-11-9-20-20-20z m-117 50c-4 0-7-3-7-7l0-23c0-4 3-8 7-8l117 0c4 0 7 4 7 8l0 23c0 4-3 7-7 7z m296-50l-117 0c-11 0-20 9-20 20l0 23c0 11 9 20 20 20l117 0c11 0 20-9 20-20l0-23c0-11-9-20-20-20z m-117 50c-4 0-7-3-7-7l0-23c0-4 3-8 7-8l117 0c4 0 7 4 7 8l0 23c0 4-3 7-7 7z m-238-130l-117 0c-11 0-20 9-20 20l0 24c0 10 9 19 20 19l117 0c11 0 20-9 20-19l0-24c0-11-9-20-20-20z m-117 51c-4 0-7-3-7-7l0-24c0-4 3-7 7-7 0 0 0 0 0 0l117 0c4 0 7 3 7 7l0 24c0 4-3 7-7 7z m472-51l-117 0c-11 0-20 9-20 20l0 24c0 10 9 19 20 19l117 0c11 0 20-9 20-19l0-24c0-11-9-20-20-20z m-117 51c-4 0-7-3-7-7l0-24c0-4 3-7 7-7l117 0c4 0 7 3 7 7l0 24c0 4-3 7-7 7z m-238-129l-117 0c-11 0-20 9-20 20l0 24c0 10 9 19 20 19l117 0c11 0 20-9 20-19l0-24c0-11-9-20-20-20z m-117 51c-4 0-7-3-7-7l0-24c0-4 3-7 7-7l117 0c4 0 7 3 7 7l0 24c0 4-3 7-7 7l-117 0z"/>
<glyph glyph-name="graph-2" unicode="&#72;" d="M83 0l-32 0c-10 0-18 8-18 19l0 353c0 10 8 19 18 19l32 0c10 0 18-9 18-19l0-353c0-11-8-19-18-19z m-32 375c-2 0-3-1-3-3l0-353c0-2 1-4 3-4l32 0c2 0 3 2 3 4l0 353c0 2-1 3-3 3z m126-375l-31 0c-11 0-19 8-19 19l0 353c0 10 8 19 19 19l31 0c11 0 19-9 19-19l0-353c0-11-8-19-19-19z m-31 375c-2 0-3-1-3-3l0-353c0-2 1-4 3-4l31 0c2 0 3 2 3 4l0 353c0 2-1 3-3 3z m126-375l-32 0c-10 0-18 8-18 19l0 353c0 10 8 19 18 19l32 0c10 0 18-9 18-19l0-353c0-11-8-19-18-19z m-32 375c-2 0-3-1-3-3l0-353c0-2 1-4 3-4l32 0c2 0 3 2 3 4l0 353c0 2-1 3-3 3z m126-375l-31 0c-11 0-19 8-19 19l0 474c0 11 8 19 19 19l31 0c11 0 19-8 19-19l0-474c0-11-8-19-19-19z m-31 497c-2 0-3-2-3-4l0-474c0-2 1-4 3-4l31 0c2 0 3 2 3 4l0 474c0 2-1 4-3 4z m126-497l-32 0c-10 0-18 8-18 19l0 353c0 10 8 19 18 19l32 0c10 0 18-9 18-19l0-353c0-11-8-19-18-19z m-32 375c-2 0-3-1-3-3l0-353c0-2 1-4 3-4l32 0c2 0 3 2 3 4l0 353c0 2-1 3-3 3z"/>
<glyph glyph-name="graph-3" unicode="&#73;" d="M103 395l-103 0 0 99 103 0z m-83 19l63 0 0 60-63 0z m83-270l-103 0 0 99 103 0z m-83 20l63 0 0 59-63 0z m83 105l-103 0 0 99 103 0z m-83 20l63 0 0 59-63 0z m83-271l-103 0 0 100 103 0z m-83 20l63 0 0 60-63 0z m220 357l-104 0 0 99 104 0z m-84 19l64 0 0 60-64 0z m84-270l-104 0 0 99 104 0z m-84 20l64 0 0 59-64 0z m84-146l-104 0 0 100 104 0z m-84 20l64 0 0 60-64 0z m220 106l-104 0 0 99 104 0z m-84 20l64 0 0 59-64 0z m84-146l-104 0 0 100 104 0z m-84 20l64 0 0 60-64 0z m220-20l-103 0 0 100 103 0z m-83 20l63 0 0 60-63 0z"/>
<glyph glyph-name="eye" unicode="&#112;" d="M256 398c-140 0-218-104-238-136-2-3-2-7 0-10 20-32 98-135 238-135 139 0 217 103 237 135 2 3 2 7 0 10-20 32-98 136-237 136m0-298c-148 0-230 110-252 143-5 9-5 20 0 28 22 34 104 143 252 143 147 0 229-109 251-143 5-8 5-19 0-28-22-33-104-143-251-143m0 264c-57 0-103-46-103-103 0-56 46-102 103-102 56 0 102 46 102 102 0 57-46 103-102 103m0-221c-66 0-119 53-119 118 0 66 53 119 119 119 65 0 118-53 118-119 0-65-53-118-118-118m1 68c-29 0-52 23-52 52 0 9 2 18 7 26 2 4 7 6 11 3 4-2 5-7 3-11-3-5-5-11-5-18 0-20 16-36 36-36 5 0 8-3 8-8 0-4-3-8-8-8"/>
<glyph glyph-name="login-icn" unicode="&#65;" d="M398 142c-4 13-18 44-57 50-15 1-25 4-32 10-7 7-9 17-9 21 0 3 0 5 3 7 16 17 26 42 26 67l0 43c0 50-36 71-72 71-35 0-71-23-71-71l0-43c0-25 10-50 26-67 1-1 3-4 3-7 0-5-2-14-9-21-5-7-17-9-32-10-40-6-55-37-57-50-2-3 0-7 1-10 0-3 3-4 6-4l263 0c3 0 7 1 8 4 3 3 3 6 3 10z m-142 342c125 0 228-103 228-228 0-125-103-228-228-228-125 0-228 103-228 228 0 125 103 228 228 228m0 28c-141 0-256-115-256-256 0-141 115-256 256-256 141 0 256 115 256 256 0 141-115 256-256 256z"/>
<glyph glyph-name="arrow-right-1" unicode="&#66;" d="M511 249c0 1 0 2 0 2 0 1 1 1 1 2 0 2 0 4 0 6 0 1-1 1-1 2 0 0 0 1 0 2-1 0-1 1-1 1 0 1-1 1-1 1 0 1-1 2-2 3l-102 102c-7 7-18 7-25 0-6-6-6-17 0-24l74-73-437 0c-9 0-17-8-17-17 0-9 8-17 17-17l437 0-74-73c-6-7-6-18 0-24 4-4 8-5 13-5 4 0 8 1 12 5l102 102c1 1 2 2 2 3 0 0 1 0 1 1 0 0 0 1 1 1z"/>
<glyph glyph-name="hand-block" unicode="&#74;" d="M395 393c-15 0-30-15-30-30l0-97-8 0 0 156c0 16-15 30-30 30-15 0-30-14-30-30l0-128-8 0 0 171c0 15-15 30-30 30-16 0-30-15-30-30l0-171-9 0 0 128c0 16-14 30-30 30-15 0-29-14-29-30l0-225-59 86c-7 10-13 15-20 16 0 0-1 0-1 0-7 0-13-5-16-8-8-8-7-20 1-37 1-2 49-106 85-163 17-26 50-57 88-57l71 0c57 0 115 58 115 115l0 214c0 15-14 30-30 30z"/>
</font>
</defs>
</svg>
